12 O’Clock (2021) Hindi 720p AMZN WEB-DL DDP5.1 x264 1.1GB [Themoviesboss]


    Seeders : 239      Leechers : 38

Movie : 12 “o” CLOCK
Downloads : 8776
Language : Hindi
tag : 12 O’Clock,2021,Hindi,720p,AMZN,WEB-DL,HDWebMovie,
Genres : Horror,Thriller,
Release date : 2021
Summary : Aahuti a metaphysics student from Delhi, shifts to Mumbai to be close to her fiancee, what happens next when she discovers the apartment she lives in is haunted.




Description


Encoded by                               : Harley Quinn




Movie name :


12 O’Clock (2021) Hindi 720p AMZN WEB-DL DDP5.1 x264 1.0GB [Themoviesboss]


General
Format : Matroska
Format version : Version 4
File size : 1.13 GiB
Duration : 1 h 52 min
Overall bit rate : 1 443 kb/s
Encoded date : UTC 2021-08-29 14:54:55
Writing application : mkvmerge v60.0.0 ('Are We Copies?') 64-bit
Writing library : libebml v1.4.2 + libmatroska v1.6.4

Video
ID : 1
Format : AVC
Format/Info : Advanced Video Codec
Format profile : [email protected]
Format settings : 2 Ref Frames
Format settings, CABAC : No
Format settings, Reference frames : 2 frames
Codec ID : V_MPEG4/ISO/AVC
Duration : 1 h 52 min
Bit rate : 1 280 kb/s
Width : 1 280 pixels
Height : 544 pixels
Display aspect ratio : 2.35:1
Frame rate mode : Constant
Frame rate : 24.000 FPS
Color space : YUV
Chroma subsampling : 4:2:0
Bit depth : 8 bits
Scan type : Progressive
Bits/(Pixel*Frame) : 0.077
Stream size : 1.01 GiB (89%)
Writing library : x264 core 159
Default : Yes
Forced : No

Audio
ID : 2
Format : AAC LC
Format/Info : Advanced Audio Codec Low Complexity
Codec ID : A_AAC-2
Duration : 1 h 52 min
Bit rate : 160 kb/s
Channel(s) : 6 channels
Channel layout : C L R Ls Rs LFE
Sampling rate : 48.0 kHz
Frame rate : 46.875 FPS (1024 SPF)
Compression mode : Lossy
Delay relative to video : -21 ms
Stream size : 129 MiB (11%)
Language : Hindi
Default : Yes
Forced : No


                                       











Trackers List

Tracker Name
udp://tracker.nyaa.uk:6969/announce
udp://tracker.coppersurfer.tk:6969/announce
udp://tracker.opentrackr.org:1337/announce
udp://9.rarbg.com:2870/announce
udp://p4p.arenabg.com:1337/announce
udp://tracker.pirateparty.gr:6969/announce
udp://exodus.desync.com:6969/announce
udp://tracker.torrent.eu.org:451/announce
udp://tracker.tiny-vps.com:6969/announce
http://pow7.com:80/announce
udp://9.rarbg.to:2930/announce
udp://open.stealth.si:80/announce
udp://tracker.leechers-paradise.org:6969/announce
http://t.nyaatracker.com:80/announce
udp://tracker.trackerfix.com:80/announce

Torrent File Content

  • 12 O’Clock (2021) Hindi 720p AMZN WEB-DL DDP5.1 x264 1.1GB [Themoviesboss].mkv (1.1 GB)

Related torrents

Torrent Name Added Size Seed Leech
22 days ago 960.4 MB 63 9


Latest Searches