Wrong.Turn.2021.720p.BluRay.H264.AAC-RARBG


    Seeders : 1917      Leechers : 557

Movie : Wrong Turn
Downloads : 4718
Language : English
tag : Wrong Turn,2021 720p,BluRay H264,AAC RARBG,Shadow,,
Genres : Horror,Thriller,
Release date : 2021
Summary : Jen and a group of friends set out to hike the Appalachian Trail. Despite warnings to stick to the trail, the hikers stray off course—and cross into land inhabited by The Foundation, a hidden community of mountain dwellers who use deadly means to protect their way of life. Suddenly under siege, Jen and her friends seem headed to the point of no return— unless Jen’s father can reach them in time.




Description




Video
ID : 1
Format : AVC
Format/Info : Advanced Video Codec
Format profile : [email protected]
Format settings : CABAC / 4 Ref Frames
Format settings, CABAC : Yes
Format settings, Reference frames : 4 frames
Codec ID : avc1
Codec ID/Info : Advanced Video Coding
Duration : 1 h 50 min
Bit rate : 1 500 kb/s
Width : 1 280 pixels
Height : 538 pixels
Display aspect ratio : 2.40:1
Original display aspect ratio : 2.40:1
Frame rate mode : Constant
Frame rate : 23.976 (23976/1000) FPS
Color space : YUV
Chroma subsampling : 4:2:0
Bit depth : 8 bits
Scan type : Progressive
Bits/(Pixel*Frame) : 0.091
Stream size : 1.15 GiB (87%)
Writing library : x264 core 152 r2851M ba24899
Encoding settings : cabac=1 / ref=4 / deblock=1:-1:-1 / analyse=0x3:0x113 / me=umh / subme=9 / psy=1 / psy_rd=1.00:0.15 / mixed_ref=1 / me_range=24 / chroma_me=1 / trellis=2 / 8x8dct=1 / cqm=0 / deadzone=21,11 / fast_pskip=1 / chroma_qp_offset=-3 / threads=16 / lookahead_threads=4 / sliced_threads=0 / nr=0 / decimate=1 / interlaced=0 / bluray_compat=0 / constrained_intra=0 / bframes=3 / b_pyramid=2 / b_adapt=2 / b_bias=0 / direct=3 / weightb=1 / open_gop=0 / weightp=2 / keyint=250 / keyint_min=25 / scenecut=40 / intra_refresh=0 / rc_lookahead=50 / rc=2pass / mbtree=1 / bitrate=1500 / ratetol=1.0 / qcomp=0.60 / qpmin=0 / qpmax=69 / qpstep=4 / cplxblur=20.0 / qblur=0.5 / vbv_maxrate=31250 / vbv_bufsize=31250 / nal_hrd=none / filler=0 / ip_ratio=1.40 / aq=3:1.00
Encoded date : UTC 2021-02-13 17:48:10
Tagged date : UTC 2021-02-13 17:48:10
Codec configuration box : avcC

Audio
ID : 2
Format : AAC LC
Format/Info : Advanced Audio Codec Low Complexity
Codec ID : mp4a-40-2
Duration : 1 h 50 min
Bit rate mode : Constant
Bit rate : 224 kb/s
Channel(s) : 6 channels
Channel layout : C L R Ls Rs LFE
Sampling rate : 48.0 kHz
Frame rate : 46.875 FPS (1024 SPF)
Compression mode : Lossy
Stream size : 177 MiB (13%)
Language : English
Default : Yes
Alternate group : 1
Encoded date : UTC 2021-02-13 17:48:10
Tagged date : UTC 2021-02-13 17:48:10







Trackers List

Tracker Name
http://tracker.trackerfix.com:80/announce
udp://9.rarbg.me:2750/announce
udp://9.rarbg.to:2820/announce

Torrent File Content

Wrong.Turn.2021.720p.BluRay.H264.AAC-RARBG
  • RARBG.txt (0.0 KB)
  • RARBG_DO_NOT_MIRROR.exe (0.1 KB)
  • Subs
    • 2_English.srt (80.7 KB)
  • Wrong.Turn.2021.720p.BluRay.H264.AAC-RARBG.mp4 (1.3 GB)

Related torrents

Torrent Name Added Size Seed Leech
15 days ago 875.4 MB 2000 414
13 days ago 2.1 GB 1603 241
14 days ago 18 GB 1140 469
15 days ago 11.5 GB 215 87
14 days ago 19.5 GB 204 86


Latest Searches