Wrong.Turn.2021.1080p.BluRay.REMUX.AVC.DTS-HD.MA.5.1-FGT


    Seeders : 78      Leechers : 37

Movie : Wrong Turn
Downloads : 327
Language : English
tag : prudence25,movies,tv,
Genres : Horror,Thriller,
Release date : 2021
Summary : Jen and a group of friends set out to hike the Appalachian Trail. Despite warnings to stick to the trail, the hikers stray off course—and cross into land inhabited by The Foundation, a hidden community of mountain dwellers who use deadly means to protect their way of life. Suddenly under siege, Jen and her friends seem headed to the point of no return— unless Jen’s father can reach them in time.




Description





Code:

Video
ID : 1
ID in the original source medium : 4113 (0x1011)
Format : AVC
Format/Info : Advanced Video Codec
Format profile : [email protected]
Format settings : CABAC / 4 Ref Frames
Format settings, CABAC : Yes
Format settings, Reference frames : 4 frames
Format settings, GOP : M=3, N=12
Codec ID : V_MPEG4/ISO/AVC
Duration : 1 h 50 min
Bit rate mode : Variable
Bit rate : 35.7 Mb/s
Maximum bit rate : 37.0 Mb/s
Width : 1 920 pixels
Height : 1 080 pixels
Display aspect ratio : 16:9
Frame rate mode : Constant
Frame rate : 23.976 (24000/1001) FPS
Color space : YUV
Chroma subsampling : 4:2:0
Bit depth : 8 bits
Scan type : Progressive
Bits/(Pixel*Frame) : 0.718
Stream size : 27.5 GiB (91%)
Language : English
Default : No
Forced : No
Original source medium : Blu-ray

Audio #1
ID : 2
ID in the original source medium : 4352 (0x1100)
Format : DTS XLL
Format/Info : Digital Theater Systems
Commercial name : DTS-HD Master Audio
Codec ID : A_DTS
Duration : 1 h 50 min
Bit rate mode : Variable
Bit rate : 3 396 kb/s
Channel(s) : 6 channels
Channel layout : C L R Ls Rs LFE
Sampling rate : 48.0 kHz
Frame rate : 93.750 FPS (512 SPF)
Bit depth : 24 bits
Compression mode : Lossless
Stream size : 2.61 GiB (9%)
Title : DTS-HD MA 5.1
Language : English
Default : Yes
Forced : No
Original source medium : Blu-ray

Audio #2
ID : 3
ID in the original source medium : 4353 (0x1101)
Format : AC-3
Format/Info : Audio Coding 3
Commercial name : Dolby Digital
Codec ID : A_AC3
Duration : 1 h 50 min
Bit rate mode : Constant
Bit rate : 192 kb/s
Channel(s) : 2 channels
Channel layout : L R
Sampling rate : 48.0 kHz
Frame rate : 31.250 FPS (1536 SPF)
Compression mode : Lossy
Stream size : 151 MiB (0%)
Title : DD 2.0
Language : English
Service kind : Complete Main
Default : No
Forced : No
Original source medium : Blu-ray

Text #1
ID : 4
Format : UTF-8
Codec ID : S_TEXT/UTF8
Codec ID/Info : UTF-8 Plain Text
Duration : 1 h 46 min
Bit rate : 44 b/s
Count of elements : 1296
Stream size : 34.9 KiB (0%)
Title : English-SRT
Language : English
Default : Yes
Forced : No

Text #2
ID : 5
ID in the original source medium : 4608 (0x1200)
Format : PGS
Muxing mode : zlib
Codec ID : S_HDMV/PGS
Codec ID/Info : Picture based subtitle format used on BDs/HD-DVDs
Duration : 1 h 47 min
Bit rate : 32.6 kb/s
Count of elements : 3024
Stream size : 25.1 MiB (0%)
Title : English-PGS
Language : English
Default : No
Forced : No
Original source medium : Blu-ray

Text #3
ID : 6
ID in the original source medium : 4609 (0x1201)
Format : PGS
Muxing mode : zlib
Codec ID : S_HDMV/PGS
Codec ID/Info : Picture based subtitle format used on BDs/HD-DVDs
Duration : 1 h 42 min
Bit rate : 27.0 kb/s
Count of elements : 2596
Stream size : 19.8 MiB (0%)
Title : Spanish-PGS
Language : Spanish
Default : No
Forced : No
Original source medium : Blu-ray

Menu
00:00:00.000 : en:Chapter 01
00:05:22.363 : en:Chapter 02
00:14:39.169 : en:Chapter 03
00:20:43.825 : en:Chapter 04
00:25:05.128 : en:Chapter 05
00:32:36.537 : en:Chapter 06
00:39:30.951 : en:Chapter 07
00:44:12.858 : en:Chapter 08
00:48:35.329 : en:Chapter 09
00:58:29.380 : en:Chapter 10
01:06:07.171 : en:Chapter 11
01:14:34.970 : en:Chapter 12
01:22:48.129 : en:Chapter 13
01:29:33.534 : en:Chapter 14
01:38:13.345 : en:Chapter 15
01:43:54.061 : en:Chapter 16


Trackers List

Tracker Name
http://tracker.trackerfix.com:80/announce
udp://9.rarbg.me:2950/announce
udp://9.rarbg.to:2940/announce

Torrent File Content

Wrong.Turn.2021.1080p.BluRay.REMUX.AVC.DTS-HD.MA.5.1-FGT
  • RARBG.txt (0.0 KB)
  • Wrong.Turn.2021.1080p.BluRay.REMUX.AVC.DTS-HD.MA.5.1-FGT.mkv (30.3 GB)

Related torrents

Torrent Name Added Size Seed Leech
19 days ago 875.4 MB 2000 414
18 days ago 1.3 GB 1917 557
17 days ago 2.1 GB 1603 241
18 days ago 18 GB 1140 469
19 days ago 11.5 GB 215 87


Latest Searches