World Famous Lover (2020) Hindi 720p WEBRip x264 AAC. ESub


    Seeders : 104      Leechers : 28

Movie : World Famous Lover
Downloads : 8093
Language : Hindi
tag : Drama,Romance,
Genres : Romance,Drama,
Release date : 2020
Summary : An amalgamation of four different love stories: Seenayya and Suvarna, a middle-class couple in a small town; Gautham, an uber-cool youngster romancing in the streets of Paris with his girlfriend Iza, Union Leader Srinu head over heels in love with his boss lady, and and the first college romance.




Description



World Famous Lover (2020)
An amalgamation of four different love stories: Seenayya and Suvarna, a middle-class couple in a small town;
Gautham, a youngster romancing in Paris with Iza,
Union Leader Srinu in love with his boss lady, and a first college romance.

Cast:Vijay Deverakonda, Raashi Khanna, Aishwarya Rajesh
Director: Kranthi Madhav.

Format : Matroska
Format version : Version 4
File size : 1.16 GiB
Duration : 2 h 27 min
Overall bit rate : 1 122 kb/s

Video
ID : 1
Format : AVC
Format/Info : Advanced Video Codec
Format profile : [email protected]
Format settings : CABAC / 4 Ref Frames
Format settings, CABAC : Yes
Format settings, Reference frames : 4 frames
Codec ID : V_MPEG4/ISO/AVC
Duration : 2 h 27 min
Bit rate : 1 050 kb/s
Width : 1 280 pixels
Height : 536 pixels
Display aspect ratio : 2.40:1
Frame rate mode : Constant
Frame rate : 24.000 FPS
Color space : YUV
Chroma subsampling : 4:2:0
Bit depth : 8 bits
Scan type : Progressive
Bits/(Pixel*Frame) : 0.064
Stream size : 1.07 GiB (93%)

Audio
ID : 2
Format : AAC LC
Format/Info : Advanced Audio Codec Low Complexity
Codec ID : A_AAC-2
Duration : 2 h 27 min
Bit rate : 77.6 kb/s
Channel(s) : 2 channels
Channel layout : L R
Sampling rate : 44.1 kHz
Frame rate : 43.066 FPS (1024 SPF)
Compression mode : Lossy
Delay relative to video : -21 ms
Stream size : 81.8 MiB (7%)
Language : Hindi
Default : Yes
Forced : No

Text
ID : 3
Format : UTF-8
Codec ID : S_TEXT/UTF8
Codec ID/Info : UTF-8 Plain Text
Duration : 2 h 24 min
Bit rate : 49 b/s
Count of elements : 1681
Stream size : 52.5 KiB (0%)
Language : English


Trackers List

Tracker Name
udp://9.rarbg.me:2780/announce
udp://9.rarbg.to:2730/announce
udp://tracker.tiny-vps.com:6969/announce
udp://tracker.torrent.eu.org:451/announce
udp://exodus.desync.com:6969/announce
http://explodie.org:6969/announce
http://tracker.opentrackr.org:1337/announce
udp://9.rarbg.to:2800/announce
http://tracker.skyts.net:6969/announce
http://t.nyaatracker.com:80/announce
udp://open.stealth.si:80/announce
UDP://TRACKER.OPENTRACKR.ORG:1337/ANNOUNCE
http://91.217.91.21:3218/announce
http://tracker.dler.org:6969/announce
udp://ipv4.tracker.harry.lu:80/announce

Torrent File Content

  • World Famous Lover (2020) Hindi 720p WEBRip x264 AAC. ESub.mkv (1.2 GB)

Related torrents

Torrent Name Added Size Seed Leech
1 month ago 1.9 GB 52 8
1 month ago 1.1 GB 32 7
1 month ago 1.6 GB 14 1
1 month ago 4.4 GB 11 4


Latest Searches