Willys.Wonderland.2021.1080p.AMZN.WEBRip.DDP5.1.x264


    Seeders : 1979      Leechers : 309

Movie : Willy's Wonderland
Downloads : 4566
Language : English
tag : prudence25,movies,tv,
Genres : Horror,Action,Thriller,
Release date : 2021
Summary : When his car breaks down, a quiet loner agrees to clean an abandoned family fun center in exchange for repairs. He soon finds himself waging war against possessed animatronic mascots while trapped inside Willy's Wonderland.




Description

https://www.imdb.com/title/tt8114980/





Code:

Video
ID : 1
Format : AVC
Format/Info : Advanced Video Codec
Format profile : [email protected]
Format settings : CABAC / 4 Ref Frames
Format settings, CABAC : Yes
Format settings, Reference frames : 4 frames
Codec ID : V_MPEG4/ISO/AVC
Duration : 1 h 28 min
Bit rate mode : Constant
Bit rate : 7 169 kb/s
Nominal bit rate : 10 000 kb/s
Width : 1 920 pixels
Height : 1 080 pixels
Display aspect ratio : 16:9
Frame rate mode : Constant
Frame rate : 23.976 (24000/1001) FPS
Color space : YUV
Chroma subsampling : 4:2:0
Bit depth : 8 bits
Scan type : Progressive
Bits/(Pixel*Frame) : 0.144
Stream size : 4.45 GiB (92%)
Language : English
Default : Yes
Forced : No
Color range : Limited
Color primaries : BT.709
Transfer characteristics : BT.709
Matrix coefficients : BT.709

Audio
ID : 2
Format : E-AC-3
Format/Info : Enhanced AC-3
Commercial name : Dolby Digital Plus
Codec ID : A_EAC3
Duration : 1 h 28 min
Bit rate mode : Constant
Bit rate : 640 kb/s
Channel(s) : 6 channels
Channel layout : L R C LFE Ls Rs
Sampling rate : 48.0 kHz
Frame rate : 31.250 FPS (1536 SPF)
Compression mode : Lossy
Stream size : 407 MiB (8%)
Title : English
Language : English
Service kind : Complete Main
Default : No
Forced : No

Text
ID : 3
Format : UTF-8
Codec ID : S_TEXT/UTF8
Codec ID/Info : UTF-8 Plain Text
Duration : 1 h 27 min
Bit rate : 48 b/s
Count of elements : 954
Stream size : 31.2 KiB (0%)
Language : English
Default : Yes
Forced : No


Trackers List

Tracker Name
http://tracker.trackerfix.com:80/announce
udp://9.rarbg.me:2780/announce
udp://9.rarbg.to:2760/announce

Torrent File Content

Willys.Wonderland.2021.1080p.AMZN.WEBRip.DDP5.1.x264-CM
  • RARBG.txt (0.0 KB)
  • Willys.Wonderland.2021.1080p.AMZN.WEBRip.DDP5.1.x264-CM.mkv (4.8 GB)

Related torrents

Torrent Name Added Size Seed Leech
7 days ago 797 MB 1031 618
6 days ago 1.7 GB 866 124
6 days ago 1.4 GB 546 58
7 days ago 3.1 GB 277 132
4 days ago 1.5 GB 57 18


Latest Searches