The Wife (2021) Hindi 720p WEBDL x264 AAC. ESub


    Seeders : 59      Leechers : 8

Movie : The Drover’s Wife: The Legend of Mo...
Downloads : 8084
Language : Hindi
tag : Horrer,Thriller,
Genres : Drama,Western,Thriller,
Release date : 2021
Summary : In 1893, heavily pregnant Molly Johnson and her children struggle in isolation to survive the harsh Australian landscape after her husband left to go droving sheep in the high country. One day, she finds a shackled Aboriginal fugitive named Yakada wounded on her property. As an unlikely bond begins to form between them he reveals secrets about her true identity. Realizing Molly’s husband is actually missing, new town lawman Nate Clintoff starts being suspicious and sends his constable to investigate. The deadly encounters between Molly, the constable and Yakada results in a tragic chain of events with Molly becoming a symbol of feminism and anti-racism.




Description



The Wife (2021):
An urban couple, Varun and Arya, is threatened when they move into a new apartment, seemingly haunted by a spirit.

Cast: Gurmeet Choudhary and Sayani Dutta.

Directed by Sarmad Khan.

Format : Matroska
Format version : Version 4
File size : 622 MiB
Duration : 1 h 46 min
Overall bit rate mode : Variable
Overall bit rate : 815 kb/s

Video
ID : 1
Format : AVC
Format/Info : Advanced Video Codec
Format profile : [email protected]
Format settings : CABAC / 4 Ref Frames
Format settings, CABAC : Yes
Format settings, Reference frames : 4 frames
Codec ID : V_MPEG4/ISO/AVC
Duration : 1 h 46 min
Bit rate mode : Variable
Bit rate : 752 kb/s
Maximum bit rate : 2 250 kb/s
Width : 1 280 pixels
Height : 720 pixels

Audio
ID : 2
Format : AAC LC
Format/Info : Advanced Audio Codec Low Complexity
Codec ID : A_AAC-2
Duration : 1 h 46 min
Bit rate : 61.4 kb/s
Channel(s) : 2 channels
Channel layout : L R
Sampling rate : 48.0 kHz
Frame rate : 46.875 FPS (1024 SPF)
Compression mode : Lossy
Delay relative to video : -33 ms
Stream size : 46.8 MiB (8%)
Language : Hindi
Default : Yes
Forced : No

Text
ID : 3
Format : UTF-8
Codec ID : S_TEXT/UTF8
Codec ID/Info : UTF-8 Plain Text
Duration : 1 h 44 min
Bit rate : 28 b/s
Count of elements : 846
Stream size : 21.6 KiB (0%)
Language : English


Trackers List

Tracker Name
udp://9.rarbg.me:2780/announce
udp://tracker.tiny-vps.com:6969/announce
udp://tracker.torrent.eu.org:451/announce
udp://exodus.desync.com:6969/announce
http://explodie.org:6969/announce
http://tracker.opentrackr.org:1337/announce
udp://9.rarbg.to:2800/announce
http://tracker.skyts.net:6969/announce
http://t.nyaatracker.com:80/announce
udp://open.stealth.si:80/announce
http://91.217.91.21:3218/announce
http://tracker.dler.org:6969/announce
udp://ipv4.tracker.harry.lu:80/announce
udp://9.rarbg.me:2720/announce
udp://9.rarbg.to:2720/announce
udp://bt2.archive.org:6969/announce
udp://bt1.archive.org:6969/announce
http://tracker.foreverpirates.co:80/announce

Torrent File Content

  • The Wife(2021) Hindi 720p WEBDL x264 AAC. ESub.mkv (621.9 MB)

Related torrents

Torrent Name Added Size Seed Leech
18 days ago 1.6 GB 60 10
18 days ago 760.4 MB 38 2


Latest Searches