The.White.Tiger.2021.720p.NF.WebRip.[DDP5.1-Hin-Eng].Esub.x264~The.PunisheR.mkv


    Seeders : 300      Leechers : 60

Movie : The White Tiger
Downloads : 15220
Language : Hindi
tag : Bollywood,1080p,The White Tiger,The.PunisheR,
Genres : Drama,
Release date : 2021
Summary : An ambitious Indian driver uses his wit and cunning to escape from poverty and rise to the top. An epic journey based on the New York Times bestseller.




Description



The.White.Tiger.2021.720p.NF.WebRip.[DDP5.1-Hin-Eng].Esub.x264~The.PunisheR.mkv

Code:


MediaInfo:
General
Unique ID                                : 66352280320312619910279207379982818134 (0x31EAFBFEABDE6572633B078488E31B56)
Complete name                            : J:/Torrents/The.White.Tiger.2021.720p.NF.WebRip.[DDP5.1-Hin-Eng].Esub.x264~The.PunisheR.mkv
Format                                   : Matroska
Format version                           : Version 4 / Version 2
File size                                : 1.49 GiB
Duration                                 : 2 h 7 min
Overall bit rate                         : 1 682 kb/s
Encoded date                             : UTC 2021-01-22 09:55:28
Writing application                      : mkvmerge v52.0.0 ('Secret For The Mad') 64-bit
Writing library                          : libebml v1.4.1 + libmatroska v1.6.2

Video
ID                                       : 1
Format                                   : AVC
Format/Info                              : Advanced Video Codec
Format profile                           : [email protected]
Format settings                          : CABAC / 5 Ref Frames
Format settings, CABAC                   : Yes
Format settings, ReFrames                : 5 frames
Codec ID                                 : V_MPEG4/ISO/AVC
Duration                                 : 2 h 7 min
Bit rate                                 : 1 296 kb/s
Width                                    : 1 280 pixels
Height                                   : 640 pixels
Display aspect ratio                     : 2.000
Frame rate mode                          : Constant
Frame rate                               : 24.000 FPS
Color space                              : YUV
Chroma subsampling                       : 4:2:0
Bit depth                                : 8 bits
Scan type                                : Progressive
Bits/(Pixel*Frame)                       : 0.066
Stream size                              : 1.15 GiB (77%)
Title                                    : 720p - NF - WebRip - AVC ~ The.PunisheR
Default                                  : Yes
Forced                                   : No
Color range                              : Limited
Color primaries                          : BT.709
Transfer characteristics                 : BT.709
Matrix coefficients                      : BT.709

Audio #1
ID                                       : 2
Format                                   : E-AC-3
Format/Info                              : Enhanced Audio Coding 3
Codec ID                                 : A_EAC3
Duration                                 : 2 h 7 min
Bit rate mode                            : Constant
Bit rate                                 : 192 kb/s
Channel(s)                               : 6 channels
Channel positions                        : Front: L C R, Side: L R, LFE
Sampling rate                            : 44.1 kHz
Frame rate                               : 172.266 FPS (256 SPF)
Compression mode                         : Lossy
Stream size                              : 174 MiB (11%)
Title                                    : DDP5.1 - 192kbps ~ The.PunisheR
Language                                 : Hindi
Service kind                             : Complete Main
Default                                  : Yes
Forced                                   : No

Audio #2
ID                                       : 3
Format                                   : E-AC-3
Format/Info                              : Enhanced Audio Coding 3
Codec ID                                 : A_EAC3
Duration                                 : 2 h 7 min
Bit rate mode                            : Constant
Bit rate                                 : 192 kb/s
Channel(s)                               : 6 channels
Channel positions                        : Front: L C R, Side: L R, LFE
Sampling rate                            : 44.1 kHz
Frame rate                               : 172.266 FPS (256 SPF)
Compression mode                         : Lossy
Stream size                              : 174 MiB (11%)
Title                                    : DDP5.1 - 192kbps ~ The.PunisheR
Language                                 : English
Service kind                             : Complete Main
Default                                  : No
Forced                                   : No

Text #1
ID                                       : 4
Format                                   : UTF-8
Codec ID                                 : S_TEXT/UTF8
Codec ID/Info                            : UTF-8 Plain Text
Duration                                 : 2 h 1 min
Bit rate                                 : 114 b/s
Count of elements                        : 1060
Stream size                              : 102 KiB (0%)
Title                                    : Hindi
Language                                 : Hindi
Default                                  : No
Forced                                   : No

Text #2
ID                                       : 5
Format                                   : UTF-8
Codec ID                                 : S_TEXT/UTF8
Codec ID/Info                            : UTF-8 Plain Text
Duration                                 : 2 h 4 min
Bit rate                                 : 80 b/s
Count of elements                        : 1832
Stream size                              : 73.5 KiB (0%)
Title                                    : English
Language                                 : English
Default                                  : No
Forced                                   : No



ScreenShots:






Code:

Source:
The.White.Tiger.2021.1080p.NF.WEB-DL.HIN-Multi.DD+5.1.x264-Telly.mkv



If You Have Good Bandwidth Please Seed this Torrent After Download Complete


Trackers List

Tracker Name
http://tracker.opentrackr.org:1337/announce
udp://9.rarbg.to:2800/announce
udp://explodie.org:6969/announce
udp://exodus.desync.com:6969/announce
udp://tracker.justseed.it:1337/announce
udp://tracker.leechers-paradise.org:6969
https://tracker.fastdownload.xyz:443/announce

Torrent File Content

  • The.White.Tiger.2021.720p.NF.WebRip.[DDP5.1-Hin-Eng].Esub.x264~The.PunisheR.mkv (1.5 GB)

Related torrents

Torrent Name Added Size Seed Leech
1 month ago 4.2 GB 1118 215
1 month ago 800.4 MB 663 178
1 month ago 2 GB 434 106
1 month ago 1.1 GB 192 64
1 month ago 1008.6 MB 155 40


Latest Searches