Silence..Can.You.Hear.It.2021.1080p.ZEE5.WEB-DL.Hindi.AAC2.0.x264~The.PunisheR.mkv


    Seeders : 109      Leechers : 20

Movie : Silence... Can You Hear It?
Downloads : 9122
Language : Hindi
tag : Silence..,Can.You.Hear.It,2021,1080p,The.PunisheR,
Genres : Thriller,Drama,
Release date : 2021
Summary : When everyone is hiding the truth, justice will thrive despite the silence. Prepare for a murder mystery that will keep you guessing till the end.




Description



Silence..Can.You.Hear.It.2021.1080p.ZEE5.WEB-DL.Hindi.AAC2.0.x264~The.PunisheR.mkv



MediaInfos:
Unique ID : 54332014575327804733260713114880007102 (0x28DFF72334BBAE6A6F018C850F895BBE)
Complete name : Silence..Can.You.Hear.It.2021.1080p.ZEE5.WEB-DL.Hindi.AAC2.0.x264~The.PunisheR.mkv
Format : Matroska
Format version : Version 4
File size : 2.13 GiB
Duration : 2 h 16 min
Overall bit rate mode : Variable
Overall bit rate : 2 242 kb/s
Encoded date : UTC 2021-03-26 03:26:14
Writing application : mkvmerge v55.0.0 ('Waiting For Space') 64-bit
Writing library : libebml v1.4.2 + libmatroska v1.6.4

Video
ID : 1
Format : AVC
Format/Info : Advanced Video Codec
Format profile : [email protected]
Format settings : CABAC / 4 Ref Frames
Format settings, CABAC : Yes
Format settings, Reference frames : 4 frames
Codec ID : V_MPEG4/ISO/AVC
Duration : 2 h 16 min
Bit rate mode : Variable
Bit rate : 2 178 kb/s
Maximum bit rate : 3 375 kb/s
Width : 1 920 pixels
Height : 1 080 pixels
Display aspect ratio : 16:9
Frame rate mode : Constant
Frame rate : 25.000 FPS
Color space : YUV
Chroma subsampling : 4:2:0
Bit depth : 8 bits
Scan type : Progressive
Bits/(Pixel*Frame) : 0.042
Stream size : 2.07 GiB (97%)
Title : 1080p ~ The.PunisheR
Language : Hindi
Default : Yes
Forced : No

Audio
ID : 2
Format : AAC LC
Format/Info : Advanced Audio Codec Low Complexity
Codec ID : A_AAC-2
Duration : 2 h 16 min
Bit rate : 61.4 kb/s
Channel(s) : 2 channels
Channel layout : L R
Sampling rate : 48.0 kHz
Frame rate : 46.875 FPS (1024 SPF)
Compression mode : Lossy
Delay relative to video : -33 ms
Stream size : 59.8 MiB (3%)
Title : AAC 2.0 ~ The.PunisheR
Language : Hindi
Default : Yes
Forced : No

Text
ID : 3
Format : UTF-8
Codec ID : S_TEXT/UTF8
Codec ID/Info : UTF-8 Plain Text
Duration : 2 h 11 min
Bit rate : 77 b/s
Count of elements : 2494
Stream size : 75.0 KiB (0%)
Language : English
Default : No
Forced : No

Screenshots:






Code:


Enjoy xD




Trackers List

Tracker Name
udp://tracker.coppersurfer.tk:6969/announce
udp://tracker.leechers-paradise.org:6969/announce
udp://open.stealth.si:80/announce
udp://exodus.desync.com:6969
udp://p4p.arenabg.com:1337/announce
udp://explodie.org:6969/announce
udp://tracker.opentrackr.org:1337/announce
udp://tracker.tiny-vps.com:6969/announce
udp://open.demonii.si:1337/announce
udp://tracker.torrent.eu.org:451/announce
udp://tracker.pirateparty.gr:6969/announce
udp://ipv4.tracker.harry.lu:80/announce
udp://tracker.cyberia.is:6969/announce
udp://9.rarbg.to:2710/announce

Torrent File Content

  • Silence..Can.You.Hear.It.2021.1080p.ZEE5.WEB-DL.Hindi.AAC2.0.x264~The.PunisheR.mkv (2.1 GB)

Related torrents

Torrent Name Added Size Seed Leech
12 days ago 953.2 MB 440 39
11 days ago 1.1 GB 148 21
11 days ago 972.3 MB 60 11
10 days ago 2 GB 43 7


Latest Searches