Rocco Schiavone - Stagione 3 epi 3 - Après le boule passe.720p.ita-MIRCrew


    Seeders : 5      Leechers : 0

Downloads : 41
Language : Italian




Description

Rocco Schiavone - Stagione 3 epi 3 - Après le boule passe.720p.ita-MIRCrew











Rocco Schiavone è una fiction Rai tratta da alcuni romanzi gialli di Antonio Manzini che hanno come protagonista, appunto, il vice questore burbero Rocco Schiavone. La seconda stagione della fiction su Schiavone, interpretato da un impeccabile Marco Giallini, è terminata a novembre 2018. Ma, sin da subito, i telespettatori hanno sperato che le vicende del vice questore non terminassero lì. Da calendario delle fiction Rai la terza stagione è in onda da ottobre

Cast:


Rocco Schiavone è Marco GIALLINI
Marina è Isabella RAGONESE
Italo Pierron è Ernesto D’ARGENIO
Caterina Rispoli è Claudia VISMARA
D’Intino è Christian GINEPRO
Deruta è Massimiliano CAPRARA
Casella è Gino NARDELLA
Antonio Scipioni è Alberto LO PORTO
Anatomopatologo Alberto Fumagalli è Massimo REALE
Capo della scientifica Farinelli è Roberto ZIBETTI
Procuratore Baldi è Filippo DINI
Questore Costa è Massimo OLCESE
Sebastiano è Francesco ACQUAROLI
Adele Talamonti è Anna FERZETTI
Brizio è Tullio SORRENTINO
Furio è Mirko FREZZA
Michela Gambino è Lorenza INDOVINA
PM Sasà D’Inzeo è Duccio CAMERINI
Anatomopatologo (Uccio) Spartaco Pichi è Roberto CIUFOLI
Cosma è Erica BLANC


Trama:

Rocco è di nuovo ad Aosta, ormai solo, a fare i conti con quello che è successo: il suo migliore amico Sebastiano è agli arresti domiciliari e crede di essere stato condannato per colpa sua; Fu-rio e Brizio non lo chiamano più; Caterina, di cui si era innamorato, si è rivelata una spia. A Rocco è rimasta solo Marina, che ancora di tanto in tanto torna a fargli compagnia, e il suo vicino di casa Gabriele

Episodi:

Prima puntata: La vita va avanti
Seconda puntata: L'accattone
Terza puntata: Après le boule passe
Quarta puntata: Fate il vostro gioco




DATI FILE:

General
Unique ID : 284008395084320112713101214235423039827 (0xD5AA06FA2F72346EC7C51A44501E6153)
Complete name : Rocco Schiavone 3x03-720p.h264.ita-MIRCrew.mkv
Format : Matroska
Format version : Version 2
File size : 1.52 GiB
Duration : 1h 40mn
Overall bit rate : 2 171 Kbps
Movie name : MIRCrew
Encoded date : UTC 2019-10-18 07:07:16
Writing application : Lavf54.63.100
Writing library : Lavf54.63.100
COMMENT : mircrew-releases

Video
ID : 1
Format : AVC
Format/Info : Advanced Video Codec
Format profile : [email protected]
Format settings, CABAC : Yes
Format settings, ReFrames : 2 frames
Codec ID : V_MPEG4/ISO/AVC
Duration : 1h 40mn
Bit rate : 2 000 Kbps
Width : 1 280 pixels
Height : 720 pixels
Display aspect ratio : 16:9
Frame rate mode : Variable
Frame rate : 25.000 fps
Color space : YUV
Chroma subsampling : 4:2:0
Bit depth : 8 bits
Scan type : Progressive
Bits/(Pixel*Frame) : 0.087
Stream size : 1.36 GiB (89%)
Writing library : x264 core 130 r2273
Encoding settings : cabac=1 / ref=2 / deblock=1:0:0 / analyse=0x1:0x131 / me=hex / subme=7 / psy=1 / psy_rd=1.00:0.00 / mixed_ref=0 / me_range=16 / chroma_me=1 / trellis=1 / 8x8dct=0 / cqm=0 / deadzone=21,11 / fast_pskip=1 / chroma_qp_offset=-2 / threads=9 / lookahead_threads=1 / sliced_threads=0 / nr=0 / decimate=1 / interlaced=0 / bluray_compat=0 / constrained_intra=0 / bframes=3 / b_pyramid=0 / b_adapt=1 / b_bias=0 / direct=3 / weightb=1 / open_gop=0 / weightp=2 / keyint=250 / keyint_min=25 / scenecut=40 / intra_refresh=0 / rc_lookahead=40 / rc=abr / mbtree=1 / bitrate=2000 / ratetol=1.0 / qcomp=0.60 / qpmin=10 / qpmax=69 / qpstep=4 / vbv_maxrate=24000 / vbv_bufsize=24000 / nal_hrd=none / ip_ratio=1.40 / aq=1:1.00
Language : Italian
Default : Yes
Forced : No
HANDLER_NAME : VideoHandler

Audio
ID : 2
Format : AC-3
Format/Info : Audio Coding 3
Mode extension : CM (complete main)
Codec ID : A_AC3
Duration : 1h 40mn
Bit rate mode : Constant
Bit rate : 192 Kbps
Channel(s) : 2 channels
Channel positions : Front: L R
Sampling rate : 48.0 KHz
Bit depth : 16 bits
Compression mode : Lossy
Delay relative to video : 1mn 5s
Stream size : 138 MiB (9%)
Language : Italian
Default : Yes
Forced : No
HANDLER_NAME : SoundHandler


Trackers List

Tracker Name
udp://tracker.coppersurfer.tk:6969/announce
udp://tracker.torrent.eu.org:451/announce
udp://tracker.leechers-paradise.org:6969/announce
udp://tracker.opentrackr.org:1337/announce
udp://9.rarbg.to:2730/announce
udp://9.rarbg.com:2710/announce
udp://9.rarbg.me:2780/announce
udp://tracker.coppersurfer.tk:80/announce
udp://tracker.pirateparty.gr:6969/announce
udp://tracker.eddie4.nl:6969/announce
udp://shadowshq.yi.org:6969/announce
udp://shadowshq.eddie4.nl:6969/announce
udp://inferno.demonoid.pw:3391/announce
udp://eddie4.nl:6969/announce
udp://62.138.0.158:6969/announce

Torrent File Content

  • Rocco Schiavone 3x03-720p.h264.ita-MIRCrew.mkv (1.5 GB)


Latest Searches