Rambo - Last Blood 2019 Blurred 1080p.H265.10 bits.AC3-2.0 - crisgsm33


    Seeders : 253      Leechers : 74

Movie : Rambo: Last Blood
Downloads : 3766
Language : English
tag : Action,Adventure,Thriller,Blurred,
Genres : Action,Thriller,Adventure,
Release date : 2019
Summary : When his housekeeper’s daughter is kidnapped, Rambo crosses the U.S.-Mexican border to bring her home but finds himself up against the full might of one of Mexico’s most ruthless cartels.




Description



Rambo must confront his past and unearth his ruthless combat skills to exact revenge in a final mission.
Director: Adrian Grunberg
Writers: Matthew Cirulnick (screenplay by), Sylvester Stallone (screenplay by)...

Source: Rambo.Last.Blood.2019.1080p.KORSUB.HDRip.x264.AAC2.0-STUTTERSHIT

==================================================================================================
Blurred for hardcoded subtitle
==================================================================================================
Applied Sharpness
==================================================================================================
Duration 01h.30m.27s - H265 10 bits
==================================================================================================
SUBTITLES - YES, Romanian, muxed
==================================================================================================
SAMPLE - YES
==================================================================================================

IMDb

https://www.imdb.com/title/tt1206885/

SNAPSHOTS







MEDIA INFO

Complete name : Rambo Last Blood 2019 Blurred 1080p.H265.10 bits.AC3-2.0 - crisgsm33.mkv
Format : Matroska
Format version : Version 4
File size : 3.22 GiB
Duration : 1 h 30 min
Overall bit rate : 5 097 kb/s
Movie name : Rambo Last Blood 2019
Encoded date : UTC 2019-11-22 17:09:19
Writing application : mkvmerge v40.0.0 ('Old Town Road + Pony') 64-bit
Writing library : libebml v1.3.9 + libmatroska v1.5.2
Cover : Yes
Attachments : cover.jpg

Video
ID : 1
Format : HEVC
Format/Info : High Efficiency Video Coding
Format profile : Main [email protected]@Main
Codec ID : V_MPEGH/ISO/HEVC
Duration : 1 h 30 min
Bit rate : 4 774 kb/s
Width : 1 920 pixels
Height : 816 pixels
Display aspect ratio : 2.35:1
Frame rate mode : Constant
Frame rate : 30.000 FPS
Color space : YUV
Chroma subsampling : 4:2:0
Bit depth : 10 bits
Bits/(Pixel*Frame) : 0.102
Stream size : 3.02 GiB (94%)
Title : Rambo Last Blood 2019
Language : English
Default : Yes
Forced : No
Color range : Limited
Color primaries : BT.709
Transfer characteristics : BT.709
Matrix coefficients : BT.709

Audio
ID : 2
Format : AC-3
Format/Info : Audio Coding 3
Commercial name : Dolby Digital
Codec ID : A_AC3
Duration : 1 h 30 min
Bit rate mode : Constant
Bit rate : 320 kb/s
Channel(s) : 2 channels
Channel layout : L R
Sampling rate : 48.0 kHz
Frame rate : 31.250 FPS (1536 SPF)
Compression mode : Lossy
Stream size : 207 MiB (6%)
Title : Rambo Last Blood 2019
Language : English
Service kind : Complete Main
Default : Yes
Forced : No

Text
ID : 3
Format : SSA
Codec ID : S_TEXT/SSA
Codec ID/Info : Sub Station Alpha
Duration : 1 h 29 min
Bit rate : 67 b/s
Count of elements : 732
Compression mode : Lossless
Stream size : 44.0 KiB (0%)
Title : Rambo Last Blood 2019
Language : Romanian
Default : Yes
Forced : No

by crisgsm33 22.11.2019


Trackers List

Tracker Name
UDP://TRACKER.LEECHERS-PARADISE.ORG:6969/ANNOUNCE
UDP://TRACKER.COPPERSURFER.TK:6969/ANNOUNCE
UDP://TRACKER.OPENTRACKR.ORG:1337/ANNOUNCE
udp://tracker.tiny-vps.com:6969/announce
udp://open.stealth.si:80/announce
udp://denis.stalker.upeer.me:6969/announce
udp://tracker.torrent.eu.org:451/announce
http://t.nyaatracker.com:80/announce
https://tracker.fastdownload.xyz:443/announce
https://1337.abcvg.info:443/announce

Torrent File Content

Rambo - Last Blood 2019 Blurred 1080p.H265.10 bits.AC3-2.0 - crisgsm33
  • Sample.mkv (37.5 MB)
  • Rambo - Last Blood 2019 Blurred 1080p.H265.10 bits.AC3-2.0 - crisgsm33.mkv (3.2 GB)

Related torrents

Torrent Name Added Size Seed Leech
1 year ago 1.6 GB 12966 6493
1 year ago 909.4 MB 9733 5175
1 year ago 797.7 MB 2573 790
1 year ago 1.4 GB 1196 510
1 year ago 4.1 GB 1169 352


Latest Searches