Mumbai Saga (2021) Hindi 720p HD Camrip - NO LOGO - 1.2 GB - x264 AAC- Shadow.BonsaiHD


    Seeders : 565      Leechers : 71

Movie : Mumbai Saga
Downloads : 58774
Language : Hindi
tag : Mumbai Saga,2021 Hindi,720p HD CamRip,Bollywood,Hindi Movie,Shadow,Pre dvdRip,,
Genres : Action,Drama,Crime,
Release date : 2021
Summary : The film, set in the 1980s and 90s, chronicles the transformation of Bombay to Mumbai. The story is a cat and mouse game between a deadly don, Amartya Rao, who doesn’t think twice before killing, and there’s nobody who could stop him and a cop, who is dogging his every step.




Description




General
Unique ID : 212487326661396182573963281125937650387 (0x9FDB920DBAC8FBB82F53BC4A16EE1AD3)
Complete name : Mumbai Saga (2021) Hindi 720p HD Camrip - NO LOGO - x264 AAC- Shadow.BonsaiHD.mkv
Format : Matroska
Format version : Version 4
File size : 1.23 GiB
Duration : 2 h 3 min
Overall bit rate : 1 433 kb/s
Movie name : -: Mumbai Saga 2021 Hindi :- Encoded By :- Shadow
Encoded date : UTC 2021-03-19 22:59:55
Writing application : mkvmerge v51.0.0 ('I Wish') 64-bit
Writing library : libebml v1.4.0 + libmatroska v1.6.2

Video
ID : 1
Format : AVC
Format/Info : Advanced Video Codec
Format profile : [email protected]
Format settings : CABAC / 1 Ref Frames
Format settings, CABAC : Yes
Format settings, Reference frames : 1 frame
Format settings, GOP : M=1, N=30
Codec ID : V_MPEG4/ISO/AVC
Duration : 2 h 3 min
Bit rate : 1 302 kb/s
Width : 1 280 pixels
Height : 720 pixels
Display aspect ratio : 16:9
Frame rate mode : Constant
Frame rate : 25.000 FPS
Color space : YUV
Chroma subsampling : 4:2:0
Bit depth : 8 bits
Scan type : Progressive
Bits/(Pixel*Frame) : 0.057
Stream size : 1.12 GiB (91%)
Title : Encoded By :- Shadow
Default : Yes
Forced : No
Color range : Limited
Color primaries : BT.709
Transfer characteristics : BT.709
Matrix coefficients : BT.709

Audio
ID : 2
Format : AAC LC
Format/Info : Advanced Audio Codec Low Complexity
Codec ID : A_AAC-2
Duration : 2 h 3 min
Bit rate : 128 kb/s
Channel(s) : 2 channels
Channel layout : L R
Sampling rate : 48.0 kHz
Frame rate : 46.875 FPS (1024 SPF)
Compression mode : Lossy
Stream size : 113 MiB (9%)
Title : Encoded By :- Shadow
Language : Hindi
Default : Yes
Forced : No











Trackers List

Tracker Name
udp://tracker.coppersurfer.tk:6969/announce
udp://tracker.leechers-paradise.org:6969/announce
http://tracker.foreverpirates.co:80/announce
udp://tracker.cyberia.is:6969/announce
udp://tracker.birkenwald.de:6969/announce
udp://explodie.org:6969/announce
udp://tracker.opentrackr.org:1337/announce
udp://tracker.tiny-vps.com:6969/announce
udp://exodus.desync.com:6969/announce
udp://tracker.torrent.eu.org:451/announce
udp://tracker.moeking.me:6969/announce
udp://ipv4.tracker.harry.lu:80/announce
udp://open.stealth.si:80/announce
udp://9.rarbg.to:2710/announce
udp://opentor.org:2710/announce

Torrent File Content

Mumbai Saga (2021) Hindi 720p HD Camrip - NO LOGO - 1.2 GB - x264 AAC- Shadow.BonsaiHD
  • Mumbai Saga (2021) Hindi 720p HD Camrip - NO LOGO - x264 AAC- Shadow.BonsaiHD.mkv (1.2 GB)


Latest Searches