Justice.League.Snyders.Cut.2021.WEBRip.720p.H264.AAC2.0 - Sungeorge


    Seeders : 975      Leechers : 115

Downloads : 54035
Language : English
tag : SunGeorge,720p,Exclusive,




Description

Justice.League.Snyders.Cut.2021.WEBRip.720p.H264.AAC2.0 - Sungeorge





Quote:


Justice.League.Snyders.Cut.2021.WEBRip.720p.H264.AAC2.0 - Sungeorge










Code:

General
Complete name : MovieAIO.club - Justice.League.Snyders.Cut.2021.WEBRip.720p.H264.AAC2.0.mkv
Format : Matroska
Format version : Version 4
File size : 2.52 GiB
Duration : 4 h 2 min
Overall bit rate : 1 487 kb/s
Movie name : MovieAIO.club
Encoded date : UTC 2021-03-17 08:01:32
Writing application : mkvmerge v51.0.0 ('I Wish') 64-bit
Writing library : libebml v1.4.0 + libmatroska v1.6.2 / Lavf58.12.100

Video
ID : 1
Format : AVC
Format/Info : Advanced Video Codec
Format profile : [email protected]
Format settings : CABAC / 2 Ref Frames
Format settings, CABAC : Yes
Format settings, Reference frames : 2 frames
Format settings, GOP : M=1, N=25
Codec ID : V_MPEG4/ISO/AVC
Duration : 4 h 2 min
Bit rate : 1 302 kb/s
Width : 1 280 pixels
Height : 720 pixels
Display aspect ratio : 16:9
Frame rate mode : Constant
Frame rate : 24.000 FPS
Color space : YUV
Chroma subsampling : 4:2:0
Bit depth : 8 bits
Scan type : Progressive
Bits/(Pixel*Frame) : 0.059
Stream size : 2.21 GiB (88%)
Title : MovieAIO.club
Default : Yes
Forced : No

Audio
ID : 2
Format : AAC LC
Format/Info : Advanced Audio Codec Low Complexity
Codec ID : A_AAC-2
Duration : 4 h 2 min
Bit rate : 182 kb/s
Channel(s) : 2 channels
Channel layout : L R
Sampling rate : 44.1 kHz
Frame rate : 43.066 FPS (1024 SPF)
Compression mode : Lossy
Stream size : 317 MiB (12%)
Title : MovieAIO.club
Default : Yes
Forced : No





Trackers List

Tracker Name
udp://46.148.18.250:2710
udp://opentor.org:2710
udp://tracker.coppersurfer.tk:6969/announce
udp://tracker.opentrackr.org:1337/announce
http://tracker.dler.org:6969/announce
udp://tracker.leechers-paradise.org:6969/announce
udp://9.rarbg.me:2730/announce
udp://9.rarbg.to:2770/announce
udp://tracker.pirateparty.gr:6969/announce
http://retracker.local/announce
http://retracker.ip.ncnet.ru/announce
udp://exodus.desync.com:6969/announce
udp://ipv4.tracker.harry.lu:80/announce
udp://open.stealth.si:80/announce
udp://retracker.lanta-net.ru:2710/announce
udp://tracker.cyberia.is:6969/announce
udp://tracker.moeking.me:6969/announce
udp://tracker.open-internet.nl:6969/announce
udp://tracker.tiny-vps.com:6969/announce
udp://tracker.torrent.eu.org:451/announce
udp://9.rarbg.me:2770/announce
udp://9.rarbg.to:2720/announce
udp://9.rarbg.to:2730/announce

Torrent File Content

Justice.League.Snyders.Cut.2021.WEBRip.720p.H264.AAC2.0
  • Justice.League.Snyders.Cut.2021.WEBRip.720p.H264.AAC2.0.mkv (2.5 GB)
  • Download torrent with SonicBit.txt (0.1 KB)


Latest Searches

essentials  |  taboo  |  3d horse  |  Fenix apk  |  adult  |  aac  |  aac  |  pornhub  |  ufc holloway  |  aac  |  2018-OnRamp-CO-PRODUCTION - 2019.03.02.03.44  |  aac  |  The Secret Life Of  |  balet  |  into the bad land  |