Jackie.Brown.1997.iTA.ENG.AC3.SUB.iTA.ENG.BluRay.1080p.x264.jeddak-MIRCrew


    Seeders : 47      Leechers : 13

Movie : Jackie Brown
Downloads : 29
Language : English
Genres : Action,Crime,Drama,Thriller,
Release date : 1997
Summary : Jackie Brown is a flight attendant who gets caught in the middle of smuggling cash into the country for her gunrunner boss. When the cops try to use Jackie to get to her boss, she hatches a plan—with help from a bail bondsman—to keep the money for herself. Based on Elmore Leonard's novel “Rum Punch”.




Description






Jackie Brown


Genere: Noir
Anno: 1997
Regia: Quentin Tarantino
Attori: Pam Grier, Samuel L. Jackson, Robert Forster, Bridget Fonda, Michael Keaton, Robert De Niro, Michael Bowen, Chris Tucker, Lisa Gay Hamilton, Hattie Winston, Sid Haig, Laura Lovelace, Denise Crosby
Paese: USA
Durata: 153 min
Formato: 35 MM, MOVIECAM
Distribuzione: CECCHI GORI DISTRIBUZIONE
Sceneggiatura: Quentin Tarantino
Fotografia: Guillermo Navarro
Montaggio: Sally Menke
Produzione: LAWRENCE BENDER PER A BAND APART, CON LA COLLABORAZIONE DI MIRAMAX FILM, MIGHTY MIGHTY AFRODITE PRODUCTIONS, LAWRENCE BENDER PRODUCTIONS


Jackie Brown è un film del 1997 diretto da Quentin Tarantino.
La protagonista della vicenda è l’hostess di volo Jackie Brown (Pam Grier) che, per arrotondare il suo stipendio, contrabbanda illegalmente denaro per il mercante d’armi Ordell Robbie (Samuel L. Jackson).
Quando riceve una telefonata dal complice Beaumont (Chris Tucker), che gli chiede di pagare la cauzione per uscire di prigione, Ordell decide di aiutarlo e di affidarsi al garante di cauzioni Max Cherry (Robert Forster).
Temendo che Beaumont possa venderlo alla polizia, Ordell architetta di ucciderlo ma è troppo tardi. Pochi giorni dopo il suo rilascio, infatti, l’uomo ha fatto una soffiata alle forze dell’ordine che colgono Jackie in flagranza di reato.
Gli agenti Mark Dargus (Michael Bowen) e Ray Nicolette (Michael Keaton) persuadono la donna a collaborare, ma Jackie si rifiuta di fornire informazioni sul trafficante e viene arrestata.
Ordell paga la sua cauzione, deciso ad ucciderla prima che possa tradirlo come aveva fatto Beaumont. Una volta libera, Jackie sa di poter contare su Max, che si è mostrato sinceramente preoccupato per lei. La donna contatta i due agenti e stringe un patto per consegnare loro Ordell.
Contemporaneamente, tuttavia, Jackie elabora un macchinoso piano per convincere il malvivente di essere dalla sua parte e di volerlo aiutare con i suoi traffici, ingannando le forze dell’ordine. Nonostante sia perplesso, Ordell sembra credere alla spiegazione della donna e la incarica di trasportare 500.000 dollari dal Messico agli Stati Uniti.
Ordell chiede al suo braccio destro, Louis Gara (Robert De Niro), di seguire Jackie mentre la paranoia lo spinge a dubitare anche della sua stralunata compagna Melanie (Bridget Fonda), furibonda dopo essere stata estromessa dai suoi affari illegali.
La hostess rivela a Max il suo piano, chiedendo aiuto per incastrare il malvivente e intascare i soldi. Ordell, tuttavia, continua a sospettare di Jackie ma la donna sa come sfruttare le debolezze del trafficante…




















General
Unique ID : 221668128167430154021048308383656869030 (0xA6C3BA83EAB9EC3B9115D8E47CFE7CA6)
Complete name : Jackie.Brown.1997.iTA.ENG.AC3.SUB.iTA.ENG.BluRay.1080p.x264.jeddak-MIRCrew.mkv
Format : Matroska
Format version : Version 2
File size : 3.44 GiB
Duration : 2 h 34 min
Overall bit rate : 3 189 kb/s
Movie name : Jackie.Brown.1997.iTA.ENG.AC3.SUB.iTA.ENG.BluRay.1080p.x264.jeddak-MIRCrew
Encoded date : UTC 2021-04-06 09:38:57
Writing application : mkvmerge v5.6.0 ('Kenya Kane') built on May 27 2012 16:44:04
Writing library : libebml v1.2.3 + libmatroska v1.3.0 / Lavf58.29.100

Video
ID : 1
Format : AVC
Format/Info : Advanced Video Codec
Format profile : [email protected]
Format settings : CABAC / 4 Ref Frames
Format settings, CABAC : Yes
Format settings, Reference : 4 frames
Codec ID : V_MPEG4/ISO/AVC
Duration : 2 h 34 min
Bit rate : 2 300 kb/s
Width : 1 920 pixels
Height : 1 040 pixels
Display aspect ratio : 1.85:1
Frame rate mode : Constant
Frame rate : 24.000 FPS
Color space : YUV
Chroma subsampling : 4:2:0
Bit depth : 8 bits
Scan type : Progressive
Bits/(Pixel*Frame) : 0.048
Stream size : 2.40 GiB (70%)
Title : ...::: jeddak MIRCrew :::...
Writing library : x264 core 148
Encoding settings : cabac=1 / ref=3 / deblock=1:-1:-1 / analyse=0x3:0x113 / me=hex / subme=7 / psy=1 / psy_rd=1.00:0.15 / mixed_ref=1 / me_range=16 / chroma_me=1 / trellis=1 / 8x8dct=1 / cqm=0 / deadzone=21,11 / fast_pskip=1 / chroma_qp_offset=-3 / threads=6 / lookahead_threads=1 / sliced_threads=0 / nr=0 / decimate=1 / interlaced=0 / bluray_compat=0 / constrained_intra=0 / bframes=3 / b_pyramid=2 / b_adapt=1 / b_bias=0 / direct=1 / weightb=1 / open_gop=0 / weightp=2 / keyint=240 / keyint_min=24 / scenecut=40 / intra_refresh=0 / rc_lookahead=40 / rc=abr / mbtree=1 / bitrate=2300 / ratetol=1.0 / qcomp=0.60 / qpmin=0 / qpmax=69 / qpstep=4 / vbv_maxrate=62500 / vbv_bufsize=78125 / nal_hrd=none / filler=0 / ip_ratio=1.40 / aq=1:1.00
Default : Yes
Forced : No
Color range : Limited
Color primaries : BT.709
Transfer characteristics : BT.709
Matrix coefficients : BT.709

Audio #1
ID : 2
Format : AC-3
Format/Info : Audio Coding 3
Commercial name : Dolby Digital
Codec ID : A_AC3
Duration : 2 h 34 min
Bit rate mode : Constant
Bit rate : 448 kb/s
Channel(s) : 6 channels
Channel layout : L R C LFE Ls Rs
Sampling rate : 48.0 kHz
Frame rate : 31.250 FPS (1536 SPF)
Compression mode : Lossy
Delay relative to video : -5 ms
Stream size : 494 MiB (14%)
Title : iTA AC3 5.1
Language : Italian
Service kind : Complete Main
Default : Yes
Forced : No

Audio #2
ID : 3
Format : AC-3
Format/Info : Audio Coding 3
Commercial name : Dolby Digital
Codec ID : A_AC3
Duration : 2 h 34 min
Bit rate mode : Constant
Bit rate : 448 kb/s
Channel(s) : 6 channels
Channel layout : L R C LFE Ls Rs
Sampling rate : 48.0 kHz
Frame rate : 31.250 FPS (1536 SPF)
Compression mode : Lossy
Delay relative to video : -5 ms
Stream size : 494 MiB (14%)
Title : ENG AC3 5.1
Language : English
Service kind : Complete Main
Default : No
Forced : No

Text #1
ID : 4
Format : PGS
Muxing mode : zlib
Codec ID : S_HDMV/PGS
Codec ID/Info : Picture based subtitle format used on BDs/HD-DVDs
Duration : 2 h 24 min
Title : iTA FORCED
Language : Italian
Default : Yes
Forced : Yes

Text #2
ID : 5
Format : PGS
Muxing mode : zlib
Codec ID : S_HDMV/PGS
Codec ID/Info : Picture based subtitle format used on BDs/HD-DVDs
Duration : 2 h 32 min
Title : ITA NON UDENTI
Language : Italian
Default : No
Forced : No

Text #3
ID : 6
Format : ASS
Codec ID : S_TEXT/ASS
Codec ID/Info : Advanced Sub Station Alpha
Duration : 2 h 31 min
Compression mode : Lossless
Title : ENG REGULAR
Language : English
Default : No
Forced : No

Menu
00:00:00.000 : :Capitolo 01
00:10:30.292 : :Capitolo 02
00:23:33.042 : :Capitolo 03
00:33:34.583 : :Capitolo 04
00:43:44.292 : :Capitolo 05
00:53:24.708 : :Capitolo 06
01:02:07.917 : :Capitolo 07
01:13:03.667 : :Capitolo 08
01:23:20.667 : :Capitolo 09
01:31:20.583 : :Capitolo 10
01:39:32.042 : :Capitolo 11
01:49:21.917 : :Capitolo 12
01:59:34.417 : :Capitolo 13
02:10:38.042 : :Capitolo 14
02:20:36.667 : :Capitolo 15
02:28:49.250 : :Capitolo 16


Trackers List

Tracker Name
udp://tracker.torrent.eu.org:451/announce
udp://tracker.coppersurfer.tk:6969/announce
udp://tracker.pirateparty.gr:6969/announce
udp://tracker.leechers-paradise.org:6969/announce
udp://tracker.cyberia.is:6969/announce
udp://tracker.iamhansen.xyz:2000/announce
udp://p4p.arenabg.com:1337/announce
udp://explodie.org:6969/announce
udp://tracker.opentrackr.org:1337/announce
udp://tracker.tiny-vps.com:6969/announce
udp://exodus.desync.com:6969/announce
udp://ipv4.tracker.harry.lu:80/announce
udp://open.stealth.si:80/announce
udp://9.rarbg.to:2710/announce

Torrent File Content

  • Jackie.Brown.1997.iTA.ENG.AC3.SUB.iTA.ENG.BluRay.1080p.x264.jeddak-MIRCrew.mkv (3.4 GB)

Related torrents

Torrent Name Added Size Seed Leech
2 years ago 9.2 GB 47 64
3 months ago 8.9 GB 24 2
4 years ago 5.7 GB 9 3
3 years ago 4 GB 4 1
7 years ago 7.5 GB 1 0


Latest Searches