Jaane Anjane Mein 3 (P02) (2021) ULLU Hindi 1080p WEBDL x264 AAC


    Seeders : 362      Leechers : 293

Downloads : 15567
Language : Hindi
tag : Drama,Romance,




Description



Jane Anjane Mein 3 ( Part-2 ):
Chandani’s sudden pregnancy might have pulled the breaks on Sasurji's joyride,
but her young sister has already accelerated her Jijaji's sultry desires.

Cast
Jinnie Jaaz, Shreya Tyagi , Deepak Dutt Sharma , Meet Arora .
Director
SSK.

Format : Matroska
Format version : Version 4
File size : 691 MiB
Duration : 21 min 24 s
Overall bit rate : 4 512 kb/s

Video
ID : 1
Format : AVC
Format/Info : Advanced Video Codec
Format profile : [email protected]
Format settings : 1 Ref Frames
Format settings, CABAC : No
Format settings, Reference frames : 1 frame
Codec ID : V_MPEG4/ISO/AVC
Duration : 21 min 24 s
Bit rate : 4 382 kb/s
Width : 1 920 pixels
Height : 1 080 pixels
Display aspect ratio : 16:9
Frame rate mode : Constant
Frame rate : 25.000 FPS
Color space : YUV
Chroma subsampling : 4:2:0
Bit depth : 8 bits
Scan type : Progressive
Bits/(Pixel*Frame) : 0.085
Stream size : 671 MiB (97%)

Audio
ID : 2
Format : AAC LC
Format/Info : Advanced Audio Codec Low Complexity
Codec ID : A_AAC-2
Duration : 21 min 24 s
Bit rate : 128 kb/s
Channel(s) : 2 channels
Channel layout : L R
Sampling rate : 48.0 kHz
Frame rate : 46.875 FPS (1024 SPF)
Compression mode : Lossy
Stream size : 19.5 MiB (3%)
Language : Hindi
Default : Yes



Trackers List

Tracker Name
udp://9.rarbg.me:2780/announce
udp://tracker.tiny-vps.com:6969/announce
udp://tracker.torrent.eu.org:451/announce
udp://exodus.desync.com:6969/announce
http://explodie.org:6969/announce
http://tracker.opentrackr.org:1337/announce
udp://9.rarbg.to:2800/announce
http://tracker.skyts.net:6969/announce
http://t.nyaatracker.com:80/announce
udp://open.stealth.si:80/announce
http://91.217.91.21:3218/announce
http://tracker.dler.org:6969/announce
udp://ipv4.tracker.harry.lu:80/announce
udp://9.rarbg.me:2720/announce
udp://9.rarbg.to:2720/announce
udp://bt2.archive.org:6969/announce
udp://bt1.archive.org:6969/announce

Torrent File Content

  • Jaane Anjane Mein 3 (P02) (2021) ULLU Hindi 1080p WEBDL x264 AAC.mkv (690.8 MB)


Latest Searches