Godzilla.vs.Kong.2021.WEBRip.XviD.MP3-XVID


    Seeders : 1098      Leechers : 205

Downloads : 5816
Language : English
tag : Godzilla Kong,2021 WEBRip,XviD MP3,XVID,Shadow,,




Description




Video
ID : 0
Format : MPEG-4 Visual
Format profile : [email protected]
Format settings, BVOP : No
Format settings, QPel : No
Format settings, GMC : No warppoints
Format settings, Matrix : Default (H.263)
Codec ID : XVID
Codec ID/Hint : XviD
Duration : 1 h 53 min
Bit rate : 1 599 kb/s
Width : 720 pixels
Height : 302 pixels
Display aspect ratio : 2.40:1
Original display aspect ratio : 2.40:1
Frame rate : 23.976 (24000/1001) FPS
Color space : YUV
Chroma subsampling : 4:2:0
Bit depth : 8 bits
Scan type : Progressive
Compression mode : Lossy
Bits/(Pixel*Frame) : 0.307
Stream size : 1.26 GiB (89%)
Title : RARBG - Godzilla.vs.Kong.2021.WEBRip.XviD.MP3-XVID
Writing library : Lavc58.35.100

Audio
ID : 1
Format : MPEG Audio
Format version : Version 1
Format profile : Layer 3
Format settings : Joint stereo / MS Stereo
Codec ID : 55
Codec ID/Hint : MP3
Duration : 1 h 53 min
Bit rate mode : Constant
Bit rate : 192 kb/s
Channel(s) : 2 channels
Sampling rate : 48.0 kHz
Compression mode : Lossy
Stream size : 155 MiB (11%)
Alignment : Aligned on interleaves
Interleave, duration : 24 ms (0.58 video frame)
Interleave, preload duration : 24 ms
Title : RARBG - Godzilla.vs.Kong.2021.WEBRip.XviD.MP3-XVID
Writing library : LAME3.99.5







Trackers List

Tracker Name
http://tracker.trackerfix.com:80/announce
udp://9.rarbg.me:2890/announce
udp://9.rarbg.to:2840/announce

Torrent File Content

Godzilla.vs.Kong.2021.WEBRip.XviD.MP3-XVID
  • Godzilla.vs.Kong.2021.WEBRip.XviD.MP3-XVID.avi (1.4 GB)
  • RARBG.txt (0.0 KB)
  • RARBG_DO_NOT_MIRROR.exe (0.1 KB)
  • Subs
    • 2_English.srt (87.9 KB)


Latest Searches

Caretaker  |  older  |  Teens]  |  microsoft project  |  exposed!  |  admiral  |  car music 2020  |  master  |  natalie monroe  |  Mission Explorer (Season 1A)  |  desperado  |  Hour 1  |  break 2018  |  break 2018  |  CHICK FIGHT  |