Gandii.Baat.S06E01-02.Urban.Stories.From.Rural.India.1080p.ALT.WEB-DL.AAC2.0.x264-Shadow.BonsaiHD


    Seeders : 114      Leechers : 16

Description




Our telegram link :- https://t.me/lustesthdnew



General
Unique ID : 209324169488513000266953760229848570019 (0x9D7A5E5D3CCDF822903C873243ECD8A3)
Complete name : Gandii.Baat.S06E01-02.Urban.Stories.From.Rural.India.1080p.ALT.WEB-DL.AAC2.0.x264-Shadow.BonsaiHD/Gandii.Baat.S06E01.Who.Killed.My.Wife.Gandii.Baat.Season.6.Urban.Stories.From.Rural.India.1080p.ALT.WEB-DL.AAC2.0.x264-Telly.mkv
Format : Matroska
Format version : Version 4 / Version 2
File size : 1.10 GiB
Duration : 39mn 45s
Overall bit rate : 3 946 Kbps
Movie name : Telly
Encoded date : UTC 2021-01-21 13:36:54
Writing application : mkvmerge v11.0.0 ('Alive') 64bit
Writing library : libebml v1.3.4 + libmatroska v1.4.5

Video
ID : 1
Format : AVC
Format/Info : Advanced Video Codec
Format profile : [email protected]
Format settings, CABAC : Yes
Format settings, ReFrames : 4 frames
Codec ID : V_MPEG4/ISO/AVC
Duration : 39mn 45s
Bit rate : 3 848 Kbps
Nominal bit rate : 4 500 Kbps
Width : 1 920 pixels
Height : 1 080 pixels
Display aspect ratio : 16:9
Frame rate mode : Constant
Frame rate : 25.000 fps
Color space : YUV
Chroma subsampling : 4:2:0
Bit depth : 8 bits
Scan type : Progressive
Bits/(Pixel*Frame) : 0.074
Stream size : 1.07 GiB (98%)
Writing library : x264 core 155
Encoding settings : cabac=1 / ref=4 / deblock=1:0:0 / analyse=0x1:0x111 / me=hex / subme=7 / psy=1 / psy_rd=1.00:0.00 / mixed_ref=1 / me_range=16 / chroma_me=1 / trellis=1 / 8x8dct=0 / cqm=0 / deadzone=21,11 / fast_pskip=1 / chroma_qp_offset=-2 / threads=34 / lookahead_threads=5 / sliced_threads=0 / nr=0 / decimate=1 / interlaced=0 / bluray_compat=0 / constrained_intra=0 / bframes=3 / b_pyramid=2 / b_adapt=2 / b_bias=0 / direct=1 / weightb=1 / open_gop=0 / weightp=2 / keyint=50 / keyint_min=26 / scenecut=0 / intra_refresh=0 / rc_lookahead=40 / rc=cbr / mbtree=1 / bitrate=4500 / ratetol=1.0 / qcomp=0.60 / qpmin=0 / qpmax=69 / qpstep=4 / vbv_maxrate=4500 / vbv_bufsize=4500 / nal_hrd=none / filler=0 / ip_ratio=1.40 / aq=1:1.00
Default : Yes
Forced : No

Audio
ID : 2
Format : AAC
Format/Info : Advanced Audio Codec
Format profile : HE-AAC / LC
Codec ID : A_AAC
Duration : 39mn 45s
Bit rate : 96.0 Kbps
Channel(s) : 2 channels
Channel positions : Front: L R
Sampling rate : 88.2 KHz / 44.1 KHz
Frame rate : 43.066 fps (1024 spf)
Compression mode : Lossy
Stream size : 27.3 MiB (2%)
Language : Hindi
Default : Yes
Forced : No

Text
ID : 3
Format : UTF-8
Codec ID : S_TEXT/UTF8
Codec ID/Info : UTF-8 Plain Text
Duration : 38mn 3s
Bit rate : 43 bps
Count of elements : 416
Stream size : 12.1 KiB (0%)
Language : English
Default : No
Forced : No






Trackers List

Tracker Name
udp://tracker.coppersurfer.tk:6969/announce
udp://tracker.leechers-paradise.org:6969/announce
http://tracker.foreverpirates.co:80/announce
udp://tracker.cyberia.is:6969/announce
udp://tracker.birkenwald.de:6969/announce
udp://explodie.org:6969/announce
udp://tracker.opentrackr.org:1337/announce
udp://tracker.tiny-vps.com:6969/announce
udp://exodus.desync.com:6969/announce
udp://tracker.torrent.eu.org:451/announce
udp://tracker.moeking.me:6969/announce
udp://ipv4.tracker.harry.lu:80/announce
udp://open.stealth.si:80/announce
udp://9.rarbg.to:2710/announce
udp://opentor.org:2710/announce

Torrent File Content

Gandii.Baat.S06E01-02.Urban.Stories.From.Rural.India.1080p.ALT.WEB-DL.AAC2.0.x264-Shadow.BonsaiHD
  • Gandii.Baat.S06E01.Who.Killed.My.Wife.Gandii.Baat.Season.6.Urban.Stories.From.Rural.India.1080p.ALT.WEB-DL.AAC2.0.x264-Telly.mkv (1.1 GB)
  • Gandii.Baat.S06E02.Experiment.Gandii.Baat.Season.6.Urban.Stories.From.Rural.India.1080p.ALT.WEB-DL.AAC2.0.x264-Telly.mkv (1.0 GB)


Latest Searches