Faith No More - The Real Thing (1989) (PBTHAL LP 24-96) [FLAC] vtwin88cube


    Seeders : 37      Leechers : 3

Downloads : 224
Language : English




Description

Faith No More
The Real Thing (1989)
FLAC LOSSLESS 24bit-96kHz
MOV PBTHAL Vinyl Rip


allmusic.com...

Starting with the careening "From Out of Nowhere" driven by Roddy Bottum's doomy, energetic keyboards, Faith No More rebounded excellently on The Real Thing after Chuck Mosley's was fired. Given that the band had nearly finished recording the music and Mike Patton was a last minute recruit, he adjusts to the proceedings well. His insane, wide-ranging musical interests would have to wait for the next album for their proper integration, but the band already showed enough of that to make it an inspired combination. Bottum, in particular, remains the wild card, coloring Jim Martin's nuclear-strength riffs and the Bill Gould/Mike Bordin rhythm slams with everything from quirky hooks to pristine synth sheen. It's not quite early Brian Eno-joins-Led Zeppelin-and-Funkadelic, but it's closer than one might think, based on the nutty lounge vibes of "Edge of the World" and the Arabic melodies and feedback of "Woodpeckers from Mars." "Falling to Pieces," a fractured anthem with a delicious delivery from Patton, should have been a bigger single that it was, while "Surprise! You're Dead!" and the title track stuff riffs down the listener's throat. The best-known song remains the appropriately titled "Epic," which lives up to its name, from the bombastic opening to the concluding piano and the crunching, stomping funk metal in between. The inclusion of a cover of Black Sabbath's "War Pigs" amusingly backfired on the band -- at the time, Sabbath's hipness level was nonexistent, making it a great screw-you to the supposed cutting-edge types. However, all the metalheads took the song to heart so much that, as a result, the quintet dropped it from their sets to play "Easy" by the Commodores instead!


foobar2000 1.4.3 / Dynamic Range Meter 1.1.1
log date: 2021-04-01 21:26:55

--------------------------------------------------------------------------------
Analyzed: Faith No More / The Real Thing
--------------------------------------------------------------------------------

DR Peak RMS Duration Track
--------------------------------------------------------------------------------
DR11 -1.79 dB -14.21 dB 3:23 01-From Out Of Nowhere
DR12 -1.00 dB -14.69 dB 4:53 02-Epic
DR11 -2.45 dB -15.43 dB 5:16 03-Falling To Pieces
DR11 -1.77 dB -13.87 dB 2:27 04-Surprise! You're Dead!
DR11 -1.38 dB -14.62 dB 6:01 05-Zombie Eaters
DR11 -1.16 dB -15.03 dB 8:14 06-The Real Thing
DR12 -1.00 dB -15.25 dB 3:52 07-Underwater Love
DR12 -1.83 dB -15.81 dB 3:44 08-The Morning After
DR12 -2.19 dB -15.67 dB 5:44 09-Woodpecker From Mars

Number of tracks: 9
Official DR value: DR11

Samplerate: 96000 Hz
Channels: 2
Bits per sample: 24
Bitrate: 2924 kbps
Codec: FLAC




Support the artists...
buy it if you like it!

Thanks for Seeding!
Cheers ;)


Trackers List

Tracker Name
udp://tracker.openbittorrent.com:80/announce
udp://exodus.desync.com:6969/announce
udp://denis.stalker.upeer.me:6969/announce
udp://tracker.torrent.eu.org:451/announce
udp://tracker.coppersurfer.tk:6969/announce
udp://tracker.internetwarriors.net:1337/announce
udp://explodie.org:6969/announce
udp://tracker.leechers-paradise.org:6969/announce
http://tracker.opentrackr.org:1337/announce

Torrent File Content

Faith No More - The Real Thing (1989) (MOV PBTHAL LP 24-96) [FLAC] vtwin88cube
  • 00.-Faith No More - The Real Thing.m3u (0.2 KB)
  • 01.-From Out Of Nowhere.flac (72.2 MB)
  • 02.-Epic.flac (103.8 MB)
  • 03.-Falling To Pieces.flac (113.1 MB)
  • 04.-Surprise! You're Dead!.flac (54.0 MB)
  • 05.-Zombie Eaters.flac (124.5 MB)
  • 06.-The Real Thing.flac (174.2 MB)
  • 07.-Underwater Love.flac (81.6 MB)
  • 08.-The Morning After.flac (77.4 MB)
  • 09.-Woodpecker From Mars.flac (120.1 MB)
  • DR11.txt (1.3 KB)
  • folder.jpg (65.0 KB)
  • lineage.txt (0.5 KB)


Latest Searches

Mastery  |  Hulk  |  telugu movies  |  telugu movies  |  Hulk  |  telugu movies  |  nozze  |  backroomcastingcouch  |  magazine xxx  |  telugu movies  |  Joe Bell  |  giro  |  Umbrella academy  |  concentration  |  kick  |