Amazing Hotels Life Beyond the Lobby S03E05 (1280x720p HD, 50fps, soft Eng subs)


    Seeders : 6      Leechers : 0

Downloads : 38
Language : English




Description

Amazing Hotels Life Beyond the Lobby S03E05 (1280x720p HD, 50fps, soft Eng subs)

Monica Galetti and Giles Coren visit the Yorkshire Dales to work at Swinton Estate, the ancestral home of Lord and Lady Masham. By taking a look the heart of the grand house and its countryside charm, as well as a wider estate that has opened up for guests to enjoy, Monica and Giles learn about the challenges of making history pay in the modern world.

First broadcast: 18 February 2021
Duration: 1 hour

Torrent dead? Request reseed at torrentgalaxy.org - or ask at elsonroa at tutanota.com

Media info:-
General
Format : MPEG-4
Format profile : Base Media
Codec ID : isom (isom/iso2/avc1/mp41)
File size : 2.12 GiB
Duration : 59mn 0s
Overall bit rate : 5 155 Kbps

Video
ID : 1
Format : AVC
Format/Info : Advanced Video Codec
Format profile : [email protected]
Format settings, CABAC : Yes
Format settings, ReFrames : 4 frames
Codec ID : avc1
Codec ID/Info : Advanced Video Coding
Duration : 59mn 0s
Bit rate : 5 019 Kbps
Width : 1 280 pixels
Height : 720 pixels
Display aspect ratio : 16:9
Frame rate mode : Constant
Frame rate : 50.000 fps
Color space : YUV
Chroma subsampling : 4:2:0
Bit depth : 8 bits
Scan type : Progressive
Bits/(Pixel*Frame) : 0.109
Stream size : 2.07 GiB (97%)
Encoded date : UTC 1904-01-01 00:00:00
Tagged date : UTC 1904-01-01 00:00:00
Color range : Limited
Color primaries : BT.709
Transfer characteristics : BT.709
Matrix coefficients : BT.709

Audio
ID : 2
Format : AAC
Format/Info : Advanced Audio Codec
Format profile : LC
Codec ID : 40
Duration : 59mn 0s
Bit rate mode : Constant
Bit rate : 128 Kbps
Channel(s) : 2 channels
Channel positions : Front: L R
Sampling rate : 48.0 KHz
Frame rate : 46.875 fps (1024 spf)
Compression mode : Lossy
Stream size : 54.0 MiB (2%)
Language : English


Trackers List

Tracker Name
udp://tracker.coppersurfer.tk:6969/announce
udp://tracker.leechers-paradise.org:6969/announce
udp://9.rarbg.to:2710/announce
udp://tracker.openbittorrent.com:80/announce
udp://ipv4.tracker.harry.lu:80/announce
udp://open.stealth.si:80/announce
udp://tracker.tiny-vps.com:6969/announce
udp://open.demonii.si:1337/announce

Torrent File Content

Amazing Hotels Life Beyond the Lobby S03E05
  • About this torrent.txt (1.8 KB)
  • Amazing Hotels Life Beyond the Lobby S03E05.jpg (1.2 MB)
  • Amazing Hotels Life Beyond the Lobby S03E05.mp4 (2.1 GB)
  • Amazing Hotels Life Beyond the Lobby S03E05.srt (131.6 KB)
  • Downloaded from Demonoid - www.dnoid.is.txt (0.1 KB)
  • If this torrent is dead.txt (0.1 KB)
  • Torrent Downloaded From 1337x.to.txt (0.0 KB)


Latest Searches